Kaleida 99 Luftballons Mp3 Download

mp3 from mediafire. mp3 9,390 KB; 09. Traduction : "99 Luftballons" (99 Ballons) [2009] Si tu as un peu de temps pour moi Alors je te chanterais une chanson Sur 99 ballons En route pour l'horizon Si peut-etre tu penses à moi Alors je te chanterais une chanson Sur 99 ballons Et comment ceci a pu arriver à cause d'une telle chose 99 ballons En route vers ton horizon On les prenait. Unknown pleasures Joy Division; Greatest Hits Guns N' Roses; Greatest Hits ZZ Top; 1984 Van Halen; Experience Hendrix: The Best Of Jimi Hendrix Jimi Hendrix. Fragezeichen. این آهنگ در سبک پاپ ساخته شده است. - Get your file. Visit Tunefind for music from your favorite TV shows and movies. Henry stood up by the great work bench, and they were carried into effect in the most complete and perfect manner. About ATOMIC BLONDS 2017 Soundtrack. For more information, please read our cookie policy. What have you done? / Not a way that you could win it / You'll be alone / But you know you just stay with it / Such is the way if you go and you play with life. Because our MP3s have no DRM, you can play it on any device that supports MP3, even on your iPod! KBPS stands for kilobits per second and the number of KBPS represents the audio quality of the MP3s. Free download 99 Luftballons Nena Mp3. Nena - 99 Luftballons (03:52) 06. Complete list of Kaleida music featured in tv shows and movies. Ver las letras de Kaleida y escuchar "Think", "99 Luftballons", "Take Me To The River", "Tropea", "Aliaa", "Ruby", "The Call", y más canciones!. Her first band was called The Stripes (1979). mp3 from mediafire. 57 MB | Route29 Download MP3 Music | route29hauntedfarm. Download on Amazon - 99 Luftballons Play on Apple Music - 99 Luftballons Download on iTunes - 99 Luftballons Play on Spotify. All songs written by and performed by Kaleida, except '99 Luftballons', written by Uwe Fahrenkrog-Petersen and Carlo Karges. 99 Luftballons Nena MIDI Multi-tracks Karaoke & Instrumental Music. EMD offers a premium experience that includes unlimited access to CD quality music. NME ‘Wood has one of those imposing voices that seems to envelop your surroundings, with Goulder’s transparent production providing a subtle electronic. cz Sweet - Blockbuster ³ 0170 - Nena - 99 Luftballons ³ 0171 - Ofra Haza - Im Nin'Alu ³ 0172. October 2017, 11:56 Various Artists / Atomic Blonde (Original Motion Picture Soundtrack). 99 LUFTBALLONS by KALEIDA (Atomic Blonde Soundtrack) (Official Audio) - Duration: 3 minutes, 55 seconds. Download FLAC Nena - 99 Luftballons [CDM] 1983 lossless CD, MP3. Originally sung in German, it was later re-recorded in English as "99 Red Balloons". Listen to and download the music, ost, score, list of songs and trailers. Take Me Home, Country Roads. mp3 from 4shared. Descargar nena ‎ 99 luftballons, en la siguiente lista tienes los resultados para el tema 99 luftballon, puedes escucharlo y luego descargarlo. Gut pumpen - Best & Reviews & Ranking - Wir durchsuchen das Netzwerk kontinuierlich nach Informationen über die neuesten Modelle Gut pumpen - Best & Reviews & Ranking und ordnen sie nach einem unparteiischen Ranking, basierend auf der Anzahl der Meinungen, Bewertungen und der Qualität derselben. Du kennst die liebe nicht. Download Atomic Blonde OST (2017) MP3, [320 kbps] torrent or any other torrent from Audio > Music Direct download via magnet link. W ostatnich 24 godzinach odwiedziło nas 9271 użytkowników w tym 4742 zalogowanych oraz 4529 gości. Nena 99 Kaleida - 99 Luftballons (Atomic Blonde Soundtrack) Source: youtube. 'Til Tuesday - Voices Carry 15. Politically active and environmentally aware, Tear The Roots is an attempt to map these concerns out of the abstract and into musical form. The ringtones on this website are in. All the Things She Said. 42 MB Nena - 99 Luftballons. Telecharger Kaleida 99 Luftballons Atomic Blonde Soundtrack mp3 Ecouter. Exact Audio Copy V1. "99 Luftballons" (German: Neunundneunzig Luftballons, "99 balloons") is a song by the German band Nena from their 1983 self-titled album. Nena Feat Nena. Download 99 Luftballons mp3 - Nena Feat Nena of Nena - MP3fiesta. Goldfinger - 99 Red Balloons (Official Video) MP3. 99 Luftballons 11. D Em G A Denkst Du vielleicht grad' an mich Dann si. Download Atomic Blonde 2017 Soundtrack Torrent. Download MP3 Songs for Free. Köschk here provides a beautiful Remix for Kaleida's downtempo version of the song, turning it both bouncy & upbeat. 99 Luftballons. Mondo in partnership with Backlot Records is proud to present the amazing soundtrack to Atomic Blonde. bigtunesmp3. Download 99 Luftballons by Nena. [Verse 1] D Em G A Hast Du etwas Zeit für mich. Complete list of Kaleida music featured in tv shows and movies. 57 MB | Route29 Download MP3 Music | route29hauntedfarm. The Fence – Imi 99 Luftballons – Kaleida Stay – Anne Pigalle The Rhythm Divine […]. 99 Luftballons. All The Pretty Pieces 4. STEEL HEART SHES GONE mp3 download (4. 1 kHz Tracklist: 01. 99 Luftballons [CDM] – download lossless. Download Kaleida Think MP3 and thousands of other hits from the getmusic. Discover, buy and download high quality mp3 music by Nena at Mp3Caprice. Discover 99 Luftballons Karaoke Backing Track as made famous by Nena. We just show max 40 MP3 list about your search Kaleida Mp3 Download Mp3, because the APIs are limited in our search system, you can download Kaleida Mp3 Download Mp3 in first result, but you must remove a Kaleida Mp3 Download from the your computer after listening so you do not violate copyright protection laws, we does not host or save Kaleida. Crockett's theme - Hammer, Jan 10. Robin Bengtsson) - EP“ ab und laden Sie das Album bei iTunes. Henry stood up by the great work bench, and they were carried into effect in the most complete and perfect manner. Kaleida - 99 Luftballons (Letras y canción para escuchar) - Hast Du etwas Zeit für mich / Dann singe ich ein Lied fuer Dich / Von Luftballons / / Auf ihrem Weg zum Horizont / / Denkst Du vielleicht grad' an mich /. Скачивай и слушай Kaleida 99 Luftballons (OST из фильма Взрывная блондинка / Atomic Blonde) и Kaleida 99 Luftballons (Tear The Roots 2017) на Patefon. Online Radio. Dapatkan semua lagu & video dari Kaleida di Mp3Ways. Feuer und Flamme. 90 Jahre - Bestenliste & Testberichte 2019 - Unsere Liste, die täglich aktualisiert wird, stellt die Rangliste der besten auf dem Markt erhältlichen 90 Jahre - Bestenliste & Testberichte 2019 ehrlich dar. Lyrics On Demand All lyrics are property and copyright of their respective authors, artists and labels. Here you can download 99 luftballons shared files: Nena 99 luftballons. Purchase, download and play digital sheet music today at Sheet Music Plus. 99 Luftballons gratuit mp3 musique! ★ Mp3 Monde Sur Mp3 Monde, nous ne conservons pas tous les fichiers MP3, car ils figurent sur des sites Web différents, sur lesquels nous recueillons des liens au format MP3, de sorte que nous ne violions aucun droit d'auteur. Pour votre recherche Nina Hagen 99 Luftballons MP3 nous avons trouvé 1000000 chansons correspondant à votre recherche, mais en affichant seulement les 10 premiers résultats. این آهنگ در سبک پاپ ساخته شده است. Discover releases, reviews, credits, songs, and more about Kaleida - Tear The Roots at Discogs. Customers Who Bought This Item Also Bought. Download VA - Atomic Blonde (2017) or any other file from Music category. search amazon for Division mp3 download. Tear The Roots DOWNLOAD LINK >>>. mp3 format and is compatible with almost all mobile phones. The soundtrack includes both Nena's 1983 anti-war protest song "99 Luftballons" along with a cover by Anglo-German electronic duo Kaleida. Klik hierboven op 'Download' om 99 luftballons te downloaden. Video for 99 Red Balloons by Nena. Released by Back Lot Music in 2017 containing music from Atomic Blonde (2017). Source: youtube. 99 Luftballons - Harthauser Musi - als MP3 kaufen. Descargas de música rápido y gratuito. Los aportes estarán alojados en los siguientes servidores: 1Fichier Uptobox Zippyshare Solidfiles Mega. Nena - 99 Luftballons • 3. Designed for Playalong or Recording. EMD offers a premium experience that includes unlimited access to CD quality music. Download MP3 Songs for Free. 52 MB • 2K plays. The album had moderate success in America. Active Shows; A-Log on the Airwaves; I Still Get Demented; Kahn Man's Comedy Corner; Off the Record; The Mad Music Podcast; The Mad Music Show; Manic Mondays. 99 Luftballons. Download our mobile app now. com (128 KB), 01 99 Luftballons. Hast Du etwas Zeit für mich? Singe ich ein Lied für Dich Von 99 Luftballons Auf ihrem Weg. Descargar nena ‎ 99 luftballons, en la siguiente lista tienes los resultados para el tema 99 luftballon, puedes escucharlo y luego descargarlo. "Dederon" by Tři Sestry is a cover of Nena's "99 Luftballons". wav Peak level 96. It was their first album released worldwide following the success of "99 Luftballons" and also the first with English lyrics. Descargas de música rápido y gratuito. As New York's summer season comes to an end, house and techno lovers can look forward to a robust Fall schedule from one of the city's most recognizable curators, Teksupport. Mp3 skull presents 99 Luftballoons download with song music skull pleer accoustic karaoke instrumental remix. Think Kaleida Free MP3 Download 99 Luftballons. Unknown pleasures Joy Division; Greatest Hits Guns N' Roses; Greatest Hits ZZ Top; 1984 Van Halen; Experience Hendrix: The Best Of Jimi Hendrix Jimi Hendrix. Nena 99 Kaleida - 99 Luftballons (Atomic Blonde Soundtrack) Source: youtube. Kaleida - 99 Luftballons Play download Add to Playlist. 99 Luftballons (03:54) 11. Download VA - Atomic Blonde (Original Motion Picture Soundtrack) (2017) (CD Rip) or any other file from Music category. Please buy How To Play Play Koukou Gurashi album music original if you like How To Play Play Koukou Gurashi | Mp3FordFiesta. Nena hit the Top 40 with "99 Luftballons. Gpu caps viewer portable source code. deposit funds, download files you have to create an account. Lehane 6,106,830 views. Sehen Sie sich die Bewertungen und Kundenrezensionen an. Where do you download MP3 songs? ITunes or Napster. Lehane 6,253,676 views. Download our mobile app now. By clicking any link on this page you are giving your consent for us to set cookies. search amazon for Division mp3 download. 0 out of 5 stars 1. Kaleida - 99 Luftballons (Atomic Blonde Soundtrack) size:. Unknown pleasures Joy Division; Greatest Hits Guns N' Roses; Greatest Hits ZZ Top; 1984 Van Halen; Experience Hendrix: The Best Of Jimi Hendrix Jimi Hendrix. Stream ad-free or purchase CD's and MP3s now on Amazon. Telecharger Luftballons musique Mp3 gratuitement le nouvel Album et dernier single. Weiser and Perry Geyer "Fastidious Horses" Written and performed by Vladimir Vysotsky Courtesy of FSUE Firma Melodiya Under license from FSUE Firma Melodiya "Under Pressure". Mp3 skull presents 99 Luftballoons download with song music skull pleer accoustic karaoke instrumental remix. Formed in 2013 after meeting through a mutual friend over the Internet, London-based duo Kaleida — aka Christina Wood (vocals) and Cicely Goulder (synths) — quickly started to put together demos, which instantly received a great response from friends and fans alike. By using our website and our services, you agree to our use of cookies as described. My one complaint is that the English version of "99 Red Balloons" was re-mixed with some sort of techno-dance sound effects added, which don't do much to make the song any better; in fact it makes the song kind of sound like one of those "Remember DISCO?" ads on TV. House Of Pulp Coco Think 99 Luftballons Meter Free All The Pretty Pieces Echo Saw. When there is a damaged backlink we're not in control of it. Descargar 99 luftballon MP3 Gratis. Скачивай и слушай Kaleida 99 Luftballons (OST из фильма Взрывная блондинка / Atomic Blonde) и Kaleida 99 Luftballons (Tear The Roots 2017) на Patefon. The group consists of vocalist Christina Wood and keyboardist Cicely Goulder. Ohne dich (Schlaf' ich heut Nacht nicht ein) - Münchener Freiheit 07. Download 99 luftballons files – TraDownload. The soundtrack from Atomic Blonde, a 2017 Movie, tracklist, listen to all the full 27 soundtrack songs, play OST music & trailer tracks. 99 LUFTBALLONS- KALEIDA (ATOMIC BLONDIE SOUNTRACK 2017). Ver las letras de Kaleida y escuchar "Think", "99 Luftballons", "Take Me To The River", "Tropea", "Aliaa", "Ruby", "The Call", y más canciones!. Kaleida is an English electropop duo from London, England, formed in 2013. Bleep 10 99 Luftballons Kaleida 3:54 Buy. Tear The Roots on Bleep. Download Nena 99 Luftballons Song Mp3. After few moments will be generated link to download video and you can start downloading. For more information, please read our cookie policy. New Order - Blue Monday. Atomic Blonde Soundtrack Download | 6. George Michael - Father Figure. 0 % Test CRC 3880D0C1 Copy CRC 3880D0C1. Convolution 2. LEX recording artists Kaleida supply a moody ethereal version of Nena's '99 Luftballons'. 99 Luftballons 11. Don't forget to share Kaleida - Tear The Roots (2017) Torrent. Nena - 99 Luftballons • 3. The group consists of vocalist Christina Wood and keyboardist Cicely Goulder. It will take no more than one minute. We just show max 40 MP3 list about your search Kaleida Mp3 Download Mp3, because the APIs are limited in our search system, you can download Kaleida Mp3 Download Mp3 in first result, but you must remove a Kaleida Mp3 Download from the your computer after listening so you do not violate copyright protection laws, we does not host or save Kaleida. Download VA - Atomic Blonde (2017) or any other file from Music category. Nena ️ (922 ⭐ songs) mp3 download or listen to tracks, ️ mp3 albums online word track for free, without registration and sms #1. Buy Kaleida Tear The Roots Mp3 Download. Download, Listen and View free Adolf Hitlers Rockhits: 99 Red Ballons (Parodie by Onkel Bernis Welt) MP3, Video and Lyrics 99 Red Balloons - played with red balloons. Nena was also the name of the band with whom she released the 1984 English recording of her most well-known song "99 Red Balloons" (orginally released in Germany in 1983 as "99 Luftballons") Nena acquired her nickname, which means "baby girl" in Spanish, at the age of 3 during a vacation to Spain. Watch the video for 99 Luftballons from Kaleida's Tear the Roots for free, and see the artwork, lyrics and similar artists. Dann singe ich ein Lied für Dich Von 99 Luftballons Dass sowas von sowas kommt 99 Luftballons Auf ihrem Weg zum Horizont Hielt man für UFOs aus dem All Darum schickte ein General Und Fliegerstaffel hinterher Alarm zu geben, wenn es so war Dabei war'n dort am Horizont Nur 99 Luftballons 99 Kriegsminister, Streichholz und Benzinkanister Hielten. This has everything from a New Order cover to a David Bowie classic. To leave a comment you must log in or register on the site. Download VA - Atomic Blonde (Original Motion Picture Soundtrack) (2017) (CD Rip) or any other file from Music category. 99 LUFTBALLONS- KALEIDA (ATOMIC BLONDIE SOUNTRACK 2017). mp3 Nena 99 Luftballons. Download Atomic Blonde OST (2017) MP3, [320 kbps] torrent or any other torrent from Audio > Music Direct download via magnet link. FAQ 99 Luftballons The song text is absent Explore album. Yeh Kahan Aa Gaye Hum (((Jhankar))) HD - Silsila (1981), HDTV songs from SAADAT MP3. Download daftar kumpulan HQ audio MP3 dan HD Video 3GP MP4 dari Kaleida dengan mudah Kaleida - 99 Luftballons. Buy Kaleida Tear The Roots Mp3 Download. Скачать песню Kaleida в хорошем качестве (320Kbps), а также слушать их онлайн. 42 MB Nena - 99 Luftballons. ÆPPRECIATION III - DEUTSCHE WÆLLE by Leaether Strip, released 07 September 2018 1. Списки альбомов и песен артиста, другие альбомы, которые часто ищут. Всего найдено было 167954 песен. Download mp3 Nena 99 Luftballons free!. You can also view each of these columns seperately by following the link at the top of each. Kaleida 99 Luftballons Atomic Blonde Soundtrack mp3 sound free add to library for offline listening. Tear the Roots is the debut album from London-based synth pop duo Kaleida and follows a string of singles and EPs. rar Archive rar +2; Size 173 MB; 05. Track quality 99. mp3 Mert Kiliç. Download Zortam Mp3 Media Studio for Windows - Free Mp3 Organizer, ID3 Tag Editor, Download Cover Art, Auto Mp3 Tagger Download "Nena - 99 Luftballons" for FREE. Kaleida - 99 Luftballons Play download Add to Playlist. Instant sound button of 99 Luftballons. mp3 format and is compatible with almost all mobile phones. Traduction de la chanson 99 Luftballons de Nena : {99 Ballons} 99 Ballons As-tu un peu de temps pour moi ? Alors je te chanterai. Find Kaleida song information on AllMusic. 9 % Test CRC 5BA7DEAD Copy CRC 5BA7DEAD Accurately ripped (confidence 4) [55617199] (AR v2) Copy OK Track 5 Filename D:\My Music\barca008\Various Artists - Atomic Blonde (Original Motion Picture Soundtrack)\05 - 99 Luftballons. Nena 99 Kaleida - 99 Luftballons (Atomic Blonde Soundtrack) Source: youtube. Tyler Bates & VA - Atomic Blonde (2017) OST [MP3]. Join Us! Saturdays 1pm-3pm EST 6pm-8pm BST 10am-12pm PDT bombshellradio. Alarm zu geben wenn es so. این آهنگ در سبک پاپ ساخته شده است. Customers Who Bought This Item Also Bought. Listen to and download the music, ost, score, list of songs and trailers. ÆPPRECIATION III - DEUTSCHE WÆLLE by Leaether Strip, released 07 September 2018 1. Kaleida Anglo-German London based Electronica duo Tear The Roots, released 15 September 2017 1. List link download lagu 99 LUFTBALLONS NENA (3:07 min - 7:48 min), last update Oct 2019. این آهنگ در سبک پاپ ساخته شده است. Listen to both songs on WhoSampled, the ultimate database of sampled music, cover songs and remixes. Auf ihrem weg zum horizont. Discover releases, reviews, credits, songs, and more about Kaleida - Tear The Roots at Discogs. First search results is. Sehen Sie sich die Bewertungen und Kundenrezensionen an. Tear the Roots is the debut album from London-based synth pop duo Kaleida and follows a string of singles and EPs. Atomic Blonde Soundtrack By Tyler Bates & VA. Top Kaleida Lyrics Think Tear The Roots House Of Pulp Meter All The Pretty Pieces Free 99 Luftballons Echo mp3 download these lyrics are submitted by LyricsVIP3. آهنگ: 99 Luftballons از ننا، آهنگ آلمانی به همراه ترجمه جهت یادگیری زبان آلمانی. 100% Safe and Secure Free Download (32-bit/64-bit) Latest Version 2019. STEEL HEART SHES GONE mp3 download (4. Download free mp3 songs. 99 Düsenflieger, jeder Krieg Ein Grosser Krieger, hielten Sich für Captain Kirk; Es GAB Ein großes Feuerwerk!. 网易公司版权所有©1997-2019 杭州乐读科技有限公司运营: 浙网文[2018]3506-263号. Know Your Enemy. Download ringtones and use them on Nokia Mobile phones, iPhone, Samsung, Sony Ericsson phones, LG mobiles, Motorola phones etc. Download Atomic Blonde OST (2017) MP3, [320 kbps] torrent or any other torrent from Audio > Music Direct download via magnet link. Nena 99 Kaleida - 99 Luftballons (Atomic Blonde Soundtrack) Source: youtube. Bleep 10 99 Luftballons Kaleida 3:54 Buy. An English-language version titled "99 Red Balloons", with lyrics by Kevin McAlea, was also released on the album 99 Luftballons in 1984 after widespread success of the original in Europe and Japan. Create an XML sitemap for your website to submit to search engines. 4 % Extraction speed 3. Purchase, download and play digital sheet music today at Sheet Music Plus. @DJ Artac Wenn Du nach Nena - 99 Luftballons suchst geht das nicht wie Du das machst, da fehlt die Wildcard "nena luftballons" dann findet er nix "nena*luftballons" dann findet VDJ den Track Also immer * dazwischen verwenden, wenn Du nach Teilen aus Titel und Interpret suchst. The largest mobile music archive. این آهنگ در سبک پاپ ساخته شده است. Mondo in partnership with Backlot Records is proud to present the amazing soundtrack to Atomic Blonde. Files: 99 Luftballons. 99 Luftballons Download on iTunes. Track quality 99. 2019- 99 Luftballons (Querflöte) Nena [PDF Noten] >>> KLICK auf die Noten um Reinzuhören <<< Noten und Playback zum Download für verschiedene Instrumente bei notendownload Blockflöte, Querflöte, Gesang, Keyboard, Klavier, Klarinette, Saxophon, Trompete, Posaune, Violine, Violoncello, E-Bass, und andere. Available with an Apple Music subscription. New Order - Blue Monday. Live concert albums of your favorite band. An English-language version titled "99 Red Balloons", with lyrics by Kevin McAlea, was also released on the album 99 Luftballons in 1984 after widespread success of the original in Europe and Japan. Download FLAC Nena - 99 Luftballons (new Version) 1983 lossless CD, MP3. Denkst du vielleicht g'rad an mich. Lehane 6,253,676 views. D Em G A Denkst Du vielleicht grad' an mich Dann si. Originally sung in German, it was later re-recorded in English as "99 Red Balloons". Lehane 6,253,676 views. Free Mp3 99 Luftballons Hot Four Creole Jazzband Download , Lyric 99 Luftballons Hot Four Creole Jazzband Chord Guitar , Free Ringtone 99 Luftballons Hot Four Creole Jazzband Download , and Get 99 Luftballons Hot Four Creole Jazzband Hiqh Qualtiy audio from Amazon , Spotify , Deezer , Itunes , Google Play , Youtube , Soundcloud and More. Download Nena 99 Luftballons Song Mp3. Listen to both songs on WhoSampled, the ultimate database of sampled music, cover songs and remixes. uk вы можете прослушать альбомы Kaleida. Files: 99 Luftballons. 99 Luftballons, Auf ihrem Weg zum Horizont, hielt man für Ufos aus dem All, Daruma schickte Ein General 'Ne Fliegerstaffel hinterher Alarm zu geben, ist so WENN Krieg! Dabei-war'n Dort am Horizont, Nur 99 Luftballons. Köschk here provides a beautiful Remix for Kaleida's downtempo version of the song, turning it both bouncy & upbeat. The race - Yello 12. CORRECTION: We lamented Theron’s relative lack of starring roles – of course, she was the sole lead in Æon Flux and Monster , the latter to great critical. این آهنگ در سبک پاپ ساخته شده است. Users who ignore this rule will be banned from the site. Nena - Definitive Collection: Best of the Best Gold. About ATOMIC BLONDS 2017 Soundtrack. D Em G A Denkst Du vielleicht grad' an mich Dann si. Definitive Collection. Ohne dich (Schlaf' ich heut Nacht nicht ein) - Münchener Freiheit 07. Списки альбомов и песен артиста, другие альбомы, которые часто ищут. 99 Luftballons Download on iTunes. Weiser and Perry Geyer "Fastidious Horses" Written and performed by Vladimir Vysotsky Courtesy of FSUE Firma Melodiya Under license from FSUE Firma Melodiya "Under Pressure". deposit funds, download files you have to create an account. Artist: Kaleida Title: Tear The Roots Released: 2017 Style: Electronic, Pop, Indie RAR Size: 261 Mb Tracklist: 01. Chcete stiahnúť len zvuk z videa vo formáte mp3? Pre stiahnutie zvuku z videa "Nena - 99 Luftballons" vo formáte MP3 jednoducho zvoľte formát MP3 a počkajte, kým sa vygeneruje odkaz. 5 MB), HD Video 3gp & mp4. 99 Luftballons - Harthauser Musi - als MP3 kaufen. Echo Saw You 03. In 2014, the band's title track from their debut EP appeared on the soundtrack of the action film, John Wick. Artist: Kaleida Album: Tear The Roots Released: 2017 Style: Electronic Format: MP3 320Kbps Size: 103 Mb. 99 Luftballons 11. KALEIDA is a synth pop duo from London and the combined talents of Christina Wood (vocals, lyrics) and Cicely Goulder (keys production, lyrics). این آهنگ در سبک پاپ ساخته شده است. Choose from several source of music. Слушайте онлайн Kaleida бесплатно на Portasound. 99 Luftballons. Fünf Jahre - Bestenliste & Testberichte 2019 - Unsere Liste, die täglich aktualisiert wird, stellt die Rangliste der besten auf dem Markt erhältlichen Fünf Jahre - Bestenliste & Testberichte 2019 ehrlich dar. 99 Luftballons (OST. Convolution 2. 99 Luftballons (metal cover by Leo. rar Archive rar +2; Size 173 MB; 05. Download Zortam Mp3 Media Studio for Windows PC from FileHorse. 99 Luftballons - Harthauser Musi - als MP3 kaufen. Batman Arkham City 021 Kampf Gegen Mr Freeze Hd Deutsch Let S Play Arkham City Mp3. 99 LUFTBALLONS by KALEIDA (Atomic Blonde Soundtrack) (Official Audio) - Duration: 3 minutes, 55 seconds. Add to my soundboard Download MP3 Report. Kaleida - 99 Luftballons (Atomic Blonde. Nena - 99 Luftballons: free exercise to learn German. Download Kaleida Think MP3 and thousands of other hits from the getmusic. The group consists of vocalist Christina Wood and keyboardist Cicely Goulder. Si Passa a Nena 99 Luftballons,versione originale in tedesco. All Soundtracks music releases on vinyl and CD in stock 19 Soundtracks (limited numbered 180 gram audiophile yellow vinyl LP + insert + MP3 download code) Music. 99 Luftballons, an album by Nena on Spotify. 08 MB Peter schilling - Major tom. Download VA - Atomic Blonde (2017) or any other file from Music category. Tear The Roots by Kaleida, released 15 September 2017 1. Think Scarica l' Mp3, e tutte le altre canzoni del repertorio. Circle of Life. Playlist: "BEST OF THE 80's" - A Compilation of the Most Popular Music Video's Ever Played on MTV in the 80's. 99 MB Atomic. 99 Luftballons [CDM] – download lossless. Download MP3 Songs for Free. Tear The Roots DOWNLOAD LINK >>>. Play, streaming, watch and download Kaleida ″99 Luftballons″ video (03:55) , you can convert to mp4, 3gp, m4a for free. ), torrents or sites which themselves link to copyrighted files. ARTISTA: Kaleida ALBUM / TITOLO: Tear The Roots ANNO USCITA / DATA: 2017 PAESE: United Kingdom (London) GENERE: Synthpop, Indie Pop, Electronic ETICHETTA: LEX Records - LEX116CD DURATA: 00:45:34 FORMATO FILE: MP3 QUALITÀ 320 kbps Sito: kaleidamusic. 2019- 99 Luftballons (Querflöte) Nena [PDF Noten] >>> KLICK auf die Noten um Reinzuhören <<< Noten und Playback zum Download für verschiedene Instrumente bei notendownload Blockflöte, Querflöte, Gesang, Keyboard, Klavier, Klarinette, Saxophon, Trompete, Posaune, Violine, Violoncello, E-Bass, und andere. Formed in 2013 after meeting through a mutual friend over the Internet, London-based duo Kaleida — aka Christina Wood (vocals) and Cicely Goulder (synths) — quickly started to put together demos, which instantly received a great response from friends and fans alike. Tracklist: 01 – Convolution 02 – Echo Saw You 03 – All The Pretty Pieces 04 – Division 05 – Free 06 – Think 07 – Coco 08 – Meter 09 – House Of Pulp 10 – 99 Luftballons 11 – Tear The Roots DOWNLOAD LINKS: RAPIDGATOR. Listen or download How To Play Play Koukou Gurashi music song for free. 9 % Test CRC 5BA7DEAD Copy CRC 5BA7DEAD Accurately ripped (confidence 4) [55617199] (AR v2) Copy OK Track 5 Filename D:\My Music\barca008\Various Artists - Atomic Blonde (Original Motion Picture Soundtrack)\05 - 99 Luftballons. Kaleida is an English electropop duo from London, England, formed in 2013. mp3 download. LEX recording artists Kaleida supply a moody ethereal version of Nena's '99 Luftballons'. We use cookies on this site to enhance your user experience. mp3 Nena 99 Luftballons. wav Peak level 96. Свернуть блокКатегории 10. mp3 Mechanical Mind. Shop Atomic Blonde [Blu-ray] [2017] at Best Buy. The greatest collection of all time!. Download the best MP3 Karaoke Songs on Karaoke Version. Download free new release mp3 Kaleida Tear The Roots 2017 FLAC from zippyshare, uploaded, torrent. Video for 99 Red Balloons by Nena. Fergus Shanahan. 99 Luftballons gratuit mp3 musique! ★ Mp3 Monde Sur Mp3 Monde, nous ne conservons pas tous les fichiers MP3, car ils figurent sur des sites Web différents, sur lesquels nous recueillons des liens au format MP3, de sorte que nous ne violions aucun droit d'auteur. Списки альбомов и песен артиста, другие альбомы, которые часто ищут. 99 Luftballons mp3 album by KALEIDA. Download the Drums Backing Track of 99 Luftballons as made famous by Nena. 5 MB), HD Video 3gp & mp4. Here you can buy and download music mp3 nena. Download Direct Tyler Bates & VA - Atomic Blonde (2017) could be available for direct download 13. nena 99 luftballons mp3 download links are externally hosted on Extabit, Rapidshare, Rapidgator, Netload, Uploaded and nena 99 luftballons mp3 also directly. torrent files directly from the indexed sites. Kaleida Dreams (Original Soundtrack to Computer Animation). Search and download from over 6 million songs, music videos and lyrics. Access in-development titles not available on IMDb. Nena - 99 Luftballons. Download Zortam Mp3 Media Studio for Windows PC from FileHorse. Und dass so was von so was kommt. Atomic Blonde Soundtrack (2017) - Complete List of Songs On November 13, 2017 By Fx In Movie SoundTracks Atomic Blonde Soundtrack : This thrilling and full of mystery movie was released in July 2017. Mp3 skull presents 99 Luftballoons download with song music skull pleer accoustic karaoke instrumental remix.